Учим английский с помощью героев диснея — учим английский сами

Учим Английский язык с Героями Диснея. Around Town — В городе

Английский язык для детей.

Учим Английский язык с Героями Диснея.

Around Town — В городе.

В книжках «Учим Английский язык с Героями Диснея» ты можешь: — писать, рисовать, решать головоломки и играть вместе с любимыми героями Диснея. -Запоминать полезные слова и выражения -Выполнять практические задания, считать и сравнивать -Изучать произношение и читать веселые стихотворения.

Содержание Книги «Учим Английский язык с Героями Диснея.Around Town — В городе.»:

— Shops (Магазины) -Food  (Продукты) -Buildings (Здания) -Get home! (Добраться до дома!) -Going out (Мы идем в…) -Jobs  (Профессии) -In the street  (На улице) -In the park  (В парке) -Короткий Тест -Слова и выражения -Ответы
  
 
Купить книгу можно в интернет магазине Labirint здесь

Книга «Учим Английский язык с Героями Диснея.Around Town — В городе.» для родителей и преподавателей, может быть использована в дошкольных учебных заведениях, начальной школе, а также использоваться родителями для самостоятельного обучения детей английскому языку. Изучай Английский и развлекайся! Disney,2006 Редактор Л.Г.Чащина. Технический редактор Е.В. Клименко. Корректор Л.Г. Чащина. Издательство Академия Смортбук

Желаю успеха всем, кто начнет работать по этой полезной, занимательной и доброй книге»Учим Английский язык с Героями Диснея.Around Town — В городе.», написанной со знанием дела и любовью к малышам.

Развитие Детей от 1 года до 2 лет. Вы находитесь в разделе «Дети от 1 до 2 лет».

В данном разделе мы поможем Вам узнать и определить уровень развития вашего ребенка, а именно , что должен знать и уметь делать Ваш ребенок в возрасте от 1 до 2 лет.

Данная статья предназначена для вашего ознакомления и дает примерные нормы степени сформированности психических процессов вашего ребенка в этом возрасте.

Вы можете проверить его потенциальные возможности в разных областях знаний, узнать, в каких областях знаний Ваш ребенок преуспевает, а в каких требуется дополнительное внимание и время.

В данном разделе «Дети от 1 до 2 лет» мы собрали весь материал, опубликованный на нашем сайте, который поможет Вам и Вашему ребенку заниматься, подготавливаться  к следующему, более углубленному этапу занятий. Материалы для Ваших занятий вы можете использовать дома, в детском саде или в начальных классах.

Логическое мышление

-Развитие Мышления, Памяти, Внимания
Ребенок в возрасте от 1 до 2 лет должен уметь:
Пособия для занятий:
1. Книжка- Пазл своими руками
2. Пазлы для детей своими руками
3. Развивающая Книга своими руками
4. Разноцветные узоры

Развитие Речи

Ребенок в возрасте от 1 до 2 лет должен уметь:
Пособия для занятий:
1. Азбука для Детей
2. Азбука в Цирке
3. Поем русский алфавит
4. Как научить ребенка буквам
5. Цветные Буквы Алфавита
6. Игры с карточками
7. Потешки для детей
8. Игра для развития Речи

Окружающий мир

Ребенок в возрасте от 1 до 2 лет должен уметь:
Пособия для занятий:
1. Детские игры Ледовые забавы
2. Карточки Части тела человека
3. Фрукты своими руками
4. Фрукты и Ягоды (карточки-раскраски)
5. Овощи (карточки — раскраски)

Навыки обихода

Ребенок в возрасте от 1 до 2 лет должен уметь:
Пособие для занятий:
1. Игры с пуговицами
2. Трафареты для детей
3. Шнуровальный планшет
4. Кубики Никитина
5. Собери картинку из двух частей

Читайте также статью для Родителей Что нужно знать о Развитии Ребенка.

Узнайте что должен знать и уметь ребенок по возрастам. Воспользуйте пособиями для занятий, которые предлагает наш сайт.

Календарь развития ребенка до 1 года (по месяцам)

Ребенок от 2 лет до 3 лет
Ребенок от 3 лет до 4 лет
Ребенок от 4 лет до 5 лет
Ребенок от 5 лет до 7 лет

Наши Партнеры — ДОСТАВКА ПО ВСЕМУ МИРУ!

Источник: http://www.razvitierebenka.com/2010/11/around-town.html

Учим английский с героями Диснея (серии 1-32 из 32) / Disney’s Magic English (2004) TVRip + [Подборка материалов DJVU, MP3]

 На всех торрентах на трекере установлена скидка на скачивание в размере 100 процентов(а). Возможность скачивания торрента НЕ зависит от ограничений при низком ратио, низком аплоаде, требуемом ратио или требуемом аплоаде.
Статистика раздачи
Размер: 8.49 ГБ | Добавлен: 01 дек 2015, 00:19 | Скачали: 22
Сидеров: 435  [0 байт/сек]    Личеров: 26  [0 байт/сек]
АвторСообщение
Гость
Учим английский с героями Диснея (серии 1-32 из 32) / Disney’s Magic English (2004) TVRip + [Подборка материалов DJVU, MP3]Русское название: Учим английский с героями Диснея (серии 1-32 из 32)Оригинальное название: Disney’s Magic EnglishГод выпуска: 2004Производство: СШАЖанр: Детский, Видеоуроки, Анимационный Перевод: ДублированныйЯзык: Английский, РусскийВид субтитров: ОтсутствуютУчастники: Персонажи Walt Disney Описание фильма:Открой для себя английский язык с помощью уроков Диснея! Многосерийное учебное издание Disney's Magic English. Это игра, в которой малыш не может проиграть. Знания, которые приходят сами. Встреча с любимыми героями диснеевских мультиков. Активное участие — 100 % восприятие. Сказка, в которой малыш говорит по-английски играючи.Развлекайся и учи английский вместе со своими любимыми героями Disney! Magic English (Волшебный английский) – это курс английского языка для детей, разработанный опытными преподавателями.Вы хотите, что бы Ваш ребёнок развивался всесторонне, и в том числе, изучая английский язык? Тогда эти мультфильмы для Вас. Создан данный материал с поддержкой 3 научных объединений и протестирован на более чем 12000 детей, что показало 92% усвоения материала. Данный показатель позволяет позиционировать данному материалу с дорогостоящими и не всегда доступными материалами других разработчиков.Коллекция объединяет в себе учебный материал и элементы игры, что позволит ребенку в непринужденной форме усвоить языковые структуры английского.Каждый выпуск посвящен отдельной теме. Материал изучается в журналах и закрепляется при просмотре видео.После окончания курса ребёнок узнает более 700 английских слов, а также ряд выражений и языковых оборотов, необходимых для дальнейшего углубленного изученияShowtime — видео материал. Ребёнок смотрит отрывки из мультфильмов Уолта Диснея и запоминает слова и выражения, которые слышит в мультфильмах, а потом от диктора. Мультфильмы привлекают внимание ребёнка и облегчают запоминание. Он получает постоянные подсказки, что он должен делать: повторять, отвечать на вопросы или петь. Таким простым способом Ваш малыш осваивает новые слова и выражения.Продолжительность: 32 х ~ 00:26:55Качество видео: TVRip Видеокодек: MPEG-1Битрейт видео: ~1150 Кбит/секРазмер кадра: 352х288Аудиокодек: MP2, 2chБитрейт аудио: 224 Кбит/сек, 44,1 КГцСкриншоты:Продолжительность : 27 м.Общий поток : 1411 Кбит/секВидеоИдентификатор : 224 (0xE0)Формат : MPEG VideoВерсия формата : Version 1Параметр BVOP формата : ДаПараметр матрицы формата : ВыборочнаяПараметр GOP формата : M=3, N=12Продолжительность : 27 м.Битрейт : 1150 Кбит/секШирина : 352 пикселяВысота : 288 пикселейСоотношение сторон : 4:3Частота кадров : 25,000 кадров/секСтандарт вещания : PALЦветовое пространство : YUVБитовая глубина : 8 битТип развёртки : ПрогрессивнаяМетод сжатия : С потерямиБит/(Пиксели*Кадры) : 0.454Размер потока : 224 Мбайт (82%)АудиоИдентификатор : 192 (0xC0)Формат : MPEG AudioВерсия формата : Version 1Профиль формата : Layer 2Продолжительность : 27 м.Вид битрейта : ПостоянныйБитрейт : 224 Кбит/секКаналы : 2 каналаЧастота : 44,1 КГцМетод сжатия : С потерямиРазмер потока : 43,3 Мбайт (16%)Walt Disney — Аудио материалы (2004) / [mp3|256] Продолжительность: 02:05:55Кодек: MP3Битрейт: 256 Кбит/секТип битрейта: VBRTреклист:[02:05] 01. — Track No01 [01:55] 02. — Track No02 [04:52] 03. — Track No03 [01:37] 04. — Track No04 [01:52] 05. — Track No05 [02:34] 06. — Track No06 [00:58] 07. — Track No07 [01:54] 08. — Track No08 [05:46] 09. — Track No09 [00:14] 10. — Track No10Продолжительность: 00:23:50Издатель: Walt DisneyTреклист:[01:56] 01. — Track No01 [02:46] 02. — Track No02 [02:48] 03. — Track No03 [03:00] 04. — Track No04 [02:24] 05. — Track No05 [01:34] 06. — Track No06 [01:12] 07. — Track No07 [03:27] 08. — Track No08 [02:32] 09. — Track No09 [05:14] 10. — Track No10 [00:11] 11. — Track No11Продолжительность: 00:27:10Издатель: Walt DisneyTреклист:[02:04] 01. — Track No01 [02:03] 02. — Track No02 [01:15] 03. — Track No03 [03:44] 04. — Track No04 [02:21] 05. — Track No05 [02:12] 06. — Track No06 [02:25] 07. — Track No07 [02:33] 08. — Track No08 [06:45] 09. — Track No09Продолжительность: 00:25:26Издатель: Walt DisneyTреклист:[01:11] 01. — Track No01 [02:16] 02. — Track No02 [01:18] 03. — Track No03 [04:16] 04. — Track No04 [01:44] 05. — Track No05 [04:50] 06. — Track No06 [01:32] 07. — Track No07 [01:31] 08. — Track No08 [01:00] 09. — Track No09 [04:41] 10. — Track No10 [00:14] 11. — Track No11Продолжительность: 00:24:38Издатель: Walt DisneyTреклист:[02:03] 01. — Track No01 [01:49] 02. — Track No02 [02:10] 03. — Track No03 [01:08] 04. — Track No04 [03:37] 05. — Track No05 [01:51] 06. — Track No06 [01:39] 07. — Track No07 [02:35] 08. — Track No08 [01:35] 09. — Track No09 [06:37] 10. — Track No10 [00:22] 11. — Track No11Продолжительность: 00:25:31Издатель: Walt DisneyWalt Disney | Печатные материалы [2004] [DjVu]#777Описание:В данном материале предоставлены комиксы с героями Walt Disney для закрепления ранее пройденных видео и аудио материалов по изучению английского детям.Скриншоты:
Читайте также:  Что такое pluralia tantum и с чем это «едят»? - учим английский сами
Статус Размер Приватный: Нет (DHT включён) .torrent скачан  22 Как залить торрент? | Как скачать Torrent? |  

загрузка…

  Похожие торренты  Автор  Ответы  Просмотры  Последнее сообщение 
Проверен (Английский язык) Учим язык — ENGLISH/Learn to Speak English 9.0 (4 CD) [2004, ISO]в форуме Английский язык (для взрослых), Размер: 2.31 ГБ, Здоровье: 75% Anonymous 3|4 3021 28 фев 2017, 00:01Anonymous<\p>
Проверен Oxford / Longman / MacMillan / Cambridge и др. — Подборка учебных материалов курсов [DjVu,PDF]в форуме Английский язык (для взрослых), Размер: 2.3 ГБ, Здоровье: 100% Anonymous 14|6 148 27 фев 2017, 22:18Anonymous<\p>
Проверен Учим иностранный. Как? — Бахурова Е. П. — Учим английский легко. Как? [2016, PDF, RUS]в форуме Английский язык (для взрослых), Размер: 8.52 МБ, Здоровье: 100% Anonymous 298|13 9015 28 фев 2017, 20:43Anonymous<\p>
Проверен Учим во сне — Матвеев С.А. — Учим английский во сне за 30 ночей [2016, PDF, RUS]в форуме Английский язык (для взрослых), Размер: 922.38 КБ, Здоровье: 100% Anonymous 73|3 1137 28 фев 2017, 19:42Anonymous<\p>
Проверен Аверьянова Л. В. — Деловой английский: банковская переписка = Business English. Banking Correspondence: Учеб. пособие [2004, DjVu, RUS]в форуме Английский язык (для взрослых), Размер: 2.29 МБ, Здоровье: 100% Anonymous 9|3 633 27 фев 2017, 23:38Anonymous<\p>
Сейчас этот форум просматривают: нет зарегистрированных пользователей и гости: 0

Вы не можете начинать темыВы не можете отвечать на сообщенияВы не можете редактировать свои сообщенияВы не можете удалять свои сообщенияВы не можете добавлять вложения

Ресурс не предоставляет электронные версии произведений, а занимается лишь коллекционированием и каталогизацией ссылок, присылаемых и публикуемых на форуме нашими читателями.

Если вы являетесь правообладателем какого-либо представленного материала и не желаете чтобы ссылка на него находилась в нашем каталоге, свяжитесь с нами и мы незамедлительно удалим её.

Файлы для обмена на трекере предоставлены пользователями сайта, и администрация не несёт ответственности за их содержание. Просьба не заливать файлы, защищенные авторскими правами, а также файлы нелегального содержания!

Источник: http://rutorka.net/uchim-angliyskiy-s-geroyami-disneya-serii-1-32-iz-32-disney-s-magic-english-2004-tvrip-t50186.html

Скачать электронные книги бесплатно, читать книги онлайн из серии Учим английский с героями Диснея

Поиск по серии «Учим английский с героями Диснея»: Новые книги

Всего книг: 10
Язык: Сортировать по: дате загрузки названию популярности рейтингу
Формат:

Загрузка…
Home, Sweet Home (Учим английский с героями Диснея)Жанр: Детские образовательныеСерия: Учим английский с героями ДиснеяДобавил: AdminДата загрузки: 18 Апр 12
Учи английский язык и играй вместе с любимыми героями Диснея. С помощью этой книжки ты узнаешь много новых слов и фраз, которые…
In Action (Учим английский с героями Диснея)Жанр: Детские образовательныеСерия: Учим английский с героями ДиснеяДобавил: AdminДата загрузки: 18 Апр 12
Учи английский язык и играй вместе с любимыми героями Диснея. С помощью этой книжки ты узнаешь много новых слов и фраз, которые…
My Home (Учим английский с героями Диснея)Жанр: Детские образовательныеСерия: Учим английский с героями ДиснеяДобавил: AdminДата загрузки: 18 Апр 12
В этой книжке ребенок может писать, рисовать, решать головоломки и играть вместе с любимыми героями Диснея, запоминать полезные слова и…
My Friends (Учим английский с героями Диснея)Жанр: Детские образовательныеСерия: Учим английский с героями ДиснеяДобавил: AdminДата загрузки: 18 Апр 12
В этой книжке ты сможешь писать, рисовать, решать головоломки и играть вместе с любимыми героями Диснея, запоминать полезные слова и…
Let's Eat (Учим английский с героями Диснея)Жанр: Детские образовательныеСерия: Учим английский с героями ДиснеяДобавил: AdminДата загрузки: 18 Апр 12
В этой книжке ты сможешь писать, рисовать, решать головоломки и играть вместе с любимыми героями Диснея, запоминать полезные слова и…
My Day (Учим английский с героями Диснея)Жанр: Детские образовательныеСерия: Учим английский с героями ДиснеяДобавил: AdminДата загрузки: 18 Апр 12
В этой книжке ты сможешь писать, рисовать, решать головоломки и играть вместе с любимыми героями Диснея, запоминать полезные слова и…
Let's Get Dressed (Учим английский с героями Диснея)Жанр: Детские образовательныеСерия: Учим английский с героями ДиснеяДобавил: AdminДата загрузки: 18 Апр 12
В этой книжке ты сможешь писать, рисовать, решать головоломки и играть вместе с любимыми героями Диснея, запоминать полезные слова и…
It's My Birthday (Учим английский с героями Диснея)Жанр: Детские образовательныеСерия: Учим английский с героями ДиснеяДобавил: AdminДата загрузки: 18 Апр 12
В этой книжке ты сможешь писать, рисовать, решать головоломки и играть вместе с любимыми героями Диснея, запоминать полезные слова и…
Holiday Time (Учим английский с героями Диснея)Жанр: Детские образовательныеСерия: Учим английский с героями ДиснеяДобавил: AdminДата загрузки: 18 Апр 12
В этой книжке ты сможешь писать, рисовать, решать головоломки и играть вместе с любимыми героями Диснея, запоминать полезные слова и…
Around Town (Учим английский с героями Диснея)Жанр: Детские образовательныеСерия: Учим английский с героями ДиснеяДобавил: AdminДата загрузки: 18 Апр 12
В этой книжке ты сможешь писать, рисовать, решать головоломки и играть вместе с любимыми героями Диснея, запоминать полезные слова и…

Источник: http://www.rulit.me/series/uchim-anglijskij-s-geroyami-disneya

Учим английский с героями Диснея

Муниципальное бюджетное образовательное учреждение

средняя общеобразовательная школа №1 г. Павлово Нижегородской области

План-конспект открытого урока

по английскому языку

во 2 классе

«Учим английский с героями Диснея»

Молодцова Екатерина Сергеевна

Учитель английского языка

МБОУ СОШ №1 г. Павлово Нижегородской области

Г. Павлово 2014.

Тема урока: Множественное число существительного.

Тип урока: комбинированный речевой и языковой урок, направленный на развитие разных видов речевой деятельности и формирование языковых грамматических. Лексических и фонетических навыков.

Цели урока.

Практическая цель: формирование коммуникативных умений учащихся в разных видах речевой деятельности: чтения, говорения, аудирования, письма.

Формирование навыка чтения.

Введение нового грамматического материала- множественное число существительного.

Общеобразовательная цель: обогащение знаний учащихся о стране изучаемого языка, совершенствование культуры общения, повышение общей культуры, расширение кругозора.

Развивающая цель: развитие внимания, памяти, воображения, мышления, смекалки; развитие эмоциональной сферы учащихся;

Воспитательная цель: воспитание культуры общения в коллективной деятельности. Воспитание нравственных и эстетических взглядов, воспитание интереса и уважительного отношения к культуре страны изучаемого языка.

Ход урока.

(слайд №1)

Сообщение темы урока. Мотивироание учащихся на выполнение задач урока.

Сегодня мы решили отправиться в путешествие в Америку, в Диснейленд, чтобы научиться хорошо говорить и читать по-английски.

Что же такое Диснейленд? Кто его создал?

(слайд№2)

Уолт Дисней — это известный во всем мире американский кинорежиссер, мультипликатор,который придумал, нарисовал и создал такие известные мультфильмы и героев, как «Белоснежка и семь гномов», «Микки-маус», «Пиноккио» и другие.

Дисней основал компанию по производству мультфильмов, и сейчас она является крупнейшей компанией в мире. Вы прекрасно знаете ее героев: Микки -Мауса, Плуто, Вини-Пуха, Маугли, Аладдина и многих других.

Уолт Дисней также стал автором идеи создания парка развлечений, в котором детей и взрослых встречают герои мультфильмов и множество аттракционов по сказкам Диснея.

  1. Фонетическая зарядка. Отработка звуков.

Мы плывем в Америку на корабле по морю.Море шумит: [][][][]. Труба у нашего парохода гудит: [u:] [u:] [u:] [u:] Мотор шумит: [r] [r] [r] [r] Мимо корабля пролетает пчелка: [ ð ] [ ð ] [ ð ] [ ð ]. Налетел ветер и сдул пчелку: [w] [w] [w] [w]. Ветер нагнал тучу и пошел дождь: [t] [d] [t] [d] [t]

Речевая разминка. Повторение и закрепление приветствий.

Итак, наши звери прибыли в Америку на корабле. Еще до того. как они сошли на землю, их встретили герои Диснея. Давайте поздороваемся с ними песенкой. (Песня Hello)

Отработка навыков устной речи. Ответы на вопросы. Закрепление грамматической структуры Can you read? – Yes, I can. (No, I cannot.)

Встреча с Человеком – Пауком. Задаем ему вопросы. Ученики выступают в роли Человека-Паука.

  1. (Слайд №5) Повторение алфавита.

Семь гномов из сказки «Белоснежка и семь гномов». Гномы были очень грустными. Злая колдунья заколдовала Белоснежку, и та уснула. Кто же теперь сможет ее расколдовать?

Колдунья дает 3 задания. Если выполним – Белоснежка проснется.

Задания по группам дифференцированного характера.

  1. Колдунья дала заклинание, состоящее из букв алфавита. Одной буквы не хватает.

Группа получает набор карточек из букв алфавита с одной пропущенной буквой. Необходимо найти недостающую букву.

  1. У колдуньи есть волшебное зеркальце. В нем – только маленькие буквы. Подберите к ним большие.

Группа получает карточку со строчными буквами алфавита и вписывает в пропуски прописные буквы.

  1. Колдунья просит угадать, какое животное у нее самое любимое (насекомое). Соедините буквы в алфавитном порядке, и у вас получится рисунок.

Формирование умения в чтении. Обучение правилам чтения. Закрепление материала «Правила чтения букв a и i в закрытом слоге».

Маугли учится читать по-английски. Распределите слова в два столбика. Прочитайте их.

Big, can, cannot, slim, fat, swim, is, Ann, skip, has, sing, Tim.

Учащиеся выполняют задание. Вслух читают слова.

Введение нового грамматического материала. Множественное число существительного. Чтение окончания множественного числа.

Формирование умения в чтении. Проверка домашнего задания.

Учебник. №5 с.66.

    1. (Слайд № 11) Развитие навыка аудирования.

Мы встречаем Аладдина. Он просит нас помочь сосчитать ему животных в зоопарке.

How many animals are there?

    1. А теперь давайте расскажем Аладдину о наших животных.

Развитие навыка монологической речи. Рассказ о животных.

По окончании рассказа каждого учащегося дети поднимают карточку-«смайлик» с оценкой говорящего.

    1. Let’s sing and dance. Танец и песня «Hockey-Cockey»

    2. Домашнее задание. (Тетрадь,№4 с.35.)

    3. Выставление оценок. Перед тем, как учитель оглашает оценки, учащиеся проводят самооценку своей работы на уроке, поднимая карточку-«смайлик».

Подведение итогов.

Давайте вспомним, что делали и что узнали на уроке.

Источник: https://kopilkaurokov.ru/angliiskiyYazik/uroki/uchim-anghliiskii-s-ghieroiami-disnieia

Учим английский с героями Диснея (серии 1-32 из 32) / Disney’s Magic English (2004) TVRip + [Подборка материалов DJVU, MP3] скачать бесплатно

Гость » 01 дек 2015, 00:19

Учим английский с героями Диснея (серии 1-32 из 32) / Disney’s Magic English (2004) TVRip + [Подборка материалов DJVU, MP3]

Русское название: Учим английский с героями Диснея (серии 1-32 из 32)
Оригинальное название: Disney’s Magic English
Год выпуска: 2004
Производство: США
Жанр: Детский, Видеоуроки, Анимационный Перевод: Дублированный
Язык: Английский, Русский
Вид субтитров: Отсутствуют
Участники: Персонажи Walt Disney Описание фильма:
Открой для себя английский язык с помощью уроков Диснея! Многосерийное учебное издание Disney's Magic English. Это игра, в которой малыш не может проиграть. Знания, которые приходят сами. Встреча с любимыми героями диснеевских мультиков. Активное участие — 100 % восприятие. Сказка, в которой малыш говорит по-английски играючи.Развлекайся и учи английский вместе со своими любимыми героями Disney! Magic English (Волшебный английский) – это курс английского языка для детей, разработанный опытными преподавателями.Вы хотите, что бы Ваш ребёнок развивался всесторонне, и в том числе, изучая английский язык? Тогда эти мультфильмы для Вас. Создан данный материал с поддержкой 3 научных объединений и протестирован на более чем 12000 детей, что показало 92% усвоения материала. Данный показатель позволяет позиционировать данному материалу с дорогостоящими и не всегда доступными материалами других разработчиков.Коллекция объединяет в себе учебный материал и элементы игры, что позволит ребенку в непринужденной форме усвоить языковые структуры английского.Каждый выпуск посвящен отдельной теме. Материал изучается в журналах и закрепляется при просмотре видео.После окончания курса ребёнок узнает более 700 английских слов, а также ряд выражений и языковых оборотов, необходимых для дальнейшего углубленного изучения

Showtime — видео материал. Ребёнок смотрит отрывки из мультфильмов Уолта Диснея и запоминает слова и выражения, которые слышит в мультфильмах, а потом от диктора. Мультфильмы привлекают внимание ребёнка и облегчают запоминание. Он получает постоянные подсказки, что он должен делать: повторять, отвечать на вопросы или петь. Таким простым способом Ваш малыш осваивает новые слова и выражения.

Продолжительность: 32 х ~ 00:26:55
Качество видео: TVRip Видеокодек: MPEG-1
Битрейт видео: ~1150 Кбит/сек
Размер кадра: 352х288
Аудиокодек: MP2, 2ch
Битрейт аудио: 224 Кбит/сек, 44,1 КГц

Скриншоты:

Продолжительность : 27 м.Общий поток : 1411 Кбит/секВидеоИдентификатор : 224 (0xE0)Формат : MPEG VideoВерсия формата : Version 1Параметр BVOP формата : ДаПараметр матрицы формата : ВыборочнаяПараметр GOP формата : M=3, N=12Продолжительность : 27 м.Битрейт : 1150 Кбит/секШирина : 352 пикселяВысота : 288 пикселейСоотношение сторон : 4:3Частота кадров : 25,000 кадров/секСтандарт вещания : PALЦветовое пространство : YUVБитовая глубина : 8 битТип развёртки : ПрогрессивнаяМетод сжатия : С потерямиБит/(Пиксели*Кадры) : 0.454Размер потока : 224 Мбайт (82%)АудиоИдентификатор : 192 (0xC0)Формат : MPEG AudioВерсия формата : Version 1Профиль формата : Layer 2Продолжительность : 27 м.Вид битрейта : ПостоянныйБитрейт : 224 Кбит/секКаналы : 2 каналаЧастота : 44,1 КГцМетод сжатия : С потерями

Размер потока : 43,3 Мбайт (16%)

Walt Disney — Аудио материалы (2004) / [mp3|256]<\p>

Продолжительность: 02:05:55
Кодек: MP3
Битрейт: 256 Кбит/сек
Тип битрейта: VBR

Tреклист:

[02:05] 01. — Track No01 [01:55] 02. — Track No02 [04:52] 03. — Track No03 [01:37] 04. — Track No04 [01:52] 05. — Track No05 [02:34] 06. — Track No06 [00:58] 07. — Track No07 [01:54] 08. — Track No08 [05:46] 09. — Track No09 [00:14] 10. — Track No10

Продолжительность: 00:23:50

Издатель: Walt Disney

Tреклист:

[01:56] 01. — Track No01 [02:46] 02. — Track No02 [02:48] 03. — Track No03 [03:00] 04. — Track No04 [02:24] 05. — Track No05 [01:34] 06. — Track No06 [01:12] 07. — Track No07 [03:27] 08. — Track No08 [02:32] 09. — Track No09 [05:14] 10. — Track No10 [00:11] 11. — Track No11

Продолжительность: 00:27:10

Издатель: Walt Disney

Tреклист:

[02:04] 01. — Track No01 [02:03] 02. — Track No02 [01:15] 03. — Track No03 [03:44] 04. — Track No04 [02:21] 05. — Track No05 [02:12] 06. — Track No06 [02:25] 07. — Track No07 [02:33] 08. — Track No08 [06:45] 09. — Track No09

Продолжительность: 00:25:26

Издатель: Walt Disney

Tреклист:

[01:11] 01. — Track No01 [02:16] 02. — Track No02 [01:18] 03. — Track No03 [04:16] 04. — Track No04 [01:44] 05. — Track No05 [04:50] 06. — Track No06 [01:32] 07. — Track No07 [01:31] 08. — Track No08 [01:00] 09. — Track No09 [04:41] 10. — Track No10 [00:14] 11. — Track No11

Продолжительность: 00:24:38

Издатель: Walt Disney

Tреклист:

[02:03] 01. — Track No01 [01:49] 02. — Track No02 [02:10] 03. — Track No03 [01:08] 04. — Track No04 [03:37] 05. — Track No05 [01:51] 06. — Track No06 [01:39] 07. — Track No07 [02:35] 08. — Track No08 [01:35] 09. — Track No09 [06:37] 10. — Track No10 [00:22] 11. — Track No11

Продолжительность: 00:25:31

Издатель: Walt Disney

Walt Disney | Печатные материалы [2004] [DjVu]

#777Описание:
В данном материале предоставлены комиксы с героями Walt Disney для закрепления ранее пройденных видео и аудио материалов по изучению английского детям.

Скриншоты:

Статус Размер Приватный: Нет (DHT включён) .torrent скачан  14 Как залить торрент? | Как скачать Torrent? | Как смотреть и слушать онлайн?  

Источник: http://multi3ker.org/uchim-angliyskiy-s-geroyami-disneya-serii-1-32-iz-32-disney-s-magic-english-2004-tvrip-t50186.html

Учим английский с героями Диснея, Часть 2 / Disney’s Magic English (Walt Disney) [2004, детский, развивающий, TVRip]



Спасибо Вам

:: Детали раздачи

Скачать Скачать .torrent файл (основная ссылка для скачивания файла)
Смотреть / Слушать онлайн просмотр (ссылка для просмотра файла через плагин 'Torrent Stream')
Теги / Метки

[Не выбрано]

Описание Учим английский с героями Диснея, Часть 2 / Disney’s Magic English Страна: USA

Режиссер: Walt Disney

Жанр: детский, развивающий Продолжительность: 6 мультов по 25 мин. Год выпуска: 2004 Перевод: Отсутствует Описание: Многосерийное учебное издание для детей от 4 лет. Игра, в которой ребенок не может проиграть. Знания, которые приходят сами. Встреча с любимыми героями диснеевских мультиков.

Сказка, в которой ребенок говорит по-английски играючи. Вместо утомительной зубрежки ваш малыш будет следить за увлекательными приключениями любимых героев, повторять их слова и предложения, распевать песенки, рассматривать веселые картинки в журнале и участвовать в викторинах.

Легко и непринужденно он научится говорить, понимать речь и читать по-английски. Доп. информация: Представлены 6 серий с 11-16 из 32 Качество: TVRip Формат: MPEG Видео кодек: DivX Аудио кодек: MPEG Audio Видео: 384×288 (1.33:1), 25 fps, DivX Codec 5.04 ~1023 kbps avg, 0.37 bit/pixel Аудио: 22.

050 kHz, MPEG Layer 3, 2 ch, ~47.79 kbps avg

Показать скриншоты

Нажмите чтобы закрыть спойлер: Показать скриншоты

Похожие файлы

Загрузка / Обновление

Категория Мультфильмы
Добавлен 2016-08-10 09:39:49 (1 год, 9 месяцев назад)
Просмотров 42 раз (a)
Взят 0 раз (a)
Файлы 6, 1.62 GB (1 741 758 624 байт)
Раздал

ViKa

  (Искать торренты)

Участники

Раздают (отдают): (), Скачивают (качают): (), Завершено: ()

Просматривают
.





Правообладателям



Источник: http://KinoClub.ws/details.php?id=166581

Ссылка на основную публикацию